Bookmarks Hands On Cubase Vol. 1 - Grundlagen und Einführ

Hands On Cubase Vol. 1 - Grundlagen und Einführ
Name:
Hands On Cubase Vol. 1 - Grundlagen und Einführ
Rating:
Users voted: 0
Language:
Hands On Cubase Vol. 1 - Grundlagen und Einführ
Hands On Cubase Vol. 1 - Grundlagen und Einführ
DVD5 in ISO-image | German | VIDEO_TS | 720 x 576 | AVC ~3000 kbps | 25 fps
MPEG Audio 192 Kbps 48.0 KHz | 2 channels | ~1 hour | 2.61 GB
Genre: eLearning Video / Sound Processing, Music Production


Mit diesem DVD Training lernen Sie auf einfache und anschauliche Weise die Bedienung von Steinbergs professioneller Musiksoftware, Schritt für Schritt und für jeden verständlich. In 40 Lektionen führen wir Sie anhand von konkreten Praxisbeispielen zur Erstellung eines kompletten Songs. Alle für Ein- und Umsteiger wichtigen Punkte werden dabei ausführlich behandelt.
Sie lernen wichtige Grundlagen und Funktionen die Sie sofort für Ihre tägliche Arbeit mit Cubase umsetzen können. Neben der Bedienung von Cubase werden zudem auch nützliche Tipps zur Konfiguration und Einrichtung Ihres PCs vermittelt. Das beiliegende Booklet bietet eine gedruckte Übersicht über die enthaltenen Lektionen.

Features
* Die 40 Lektionen lassen sich als zusammenhängender Film betrachten, oder nach Bedarf einzeln anwählen
* ideal zum Nachschlagen von Funktionen
* Dieser Einsteiger Lernkurs wurde mit Cubase SX 3 erstellt
* Die hier gezeigten Grundlagen und Funktionen sind jedoch zum Großteil auch für Anwender von Cubase SX, SL und SE geeignet
* Gesamtlaufzeit: über 2 Stunden
* Vorraussetzung: PC mit DVD Abspieler oder TV mit DVD-Player

also You can find my other last: Sound Processing-posts



General
Complete name : VTS_01_2.VOB
Format : MPEG-PS
File size : 977 MiB
Duration : 23 s 304 ms
Overall bit rate mode : Constant
Overall bit rate : 352 Mb/s

Video
ID : 224 (0xE0)
Format : MPEG Video
Format version : Version 2
Format profile : [email protected]
Format settings : CustomMatrix / BVOP
Format settings, BVOP : Yes
Format settings, Matrix : Custom
Format settings, GOP : M=3, N=15
Format settings, picture structure : Frame
Duration : 23 s 240 ms
Bit rate mode : Constant
Bit rate : 344 Mb/s
Maximum bit rate : 3 000 kb/s
Width : 720 pixels
Height : 576 pixels
Display aspect ratio : 4:3
Frame rate : 25.000 FPS
Standard : PAL
Color space : YUV
Chroma subsampling : 4:2:0
Bit depth : 8 bits
Scan type : Interlaced
Scan order : Bottom Field First
Compression mode : Lossy
Bits/(Pixel*Frame) : 33.217
Time code of first frame : 00:00:37:20
Time code source : Group of pictures header
GOP, Open/Closed : Open
Stream size : 954 MiB (98%)

Audio
ID : 192 (0xC0)
Format : MPEG Audio
Format version : Version 1
Format profile : Layer 2
Duration : 23 s 304 ms
Bit rate mode : Constant
Bit rate : 192 kb/s
Channel(s) : 2 channels
Sampling rate : 48.0 kHz
Frame rate : 41.667 FPS (1152 SPF)
Compression mode : Lossy
Delay relative to video : -152 ms
Stream size : 546 KiB (0%)

Menu


Hands On Cubase Vol. 1 - Grundlagen und Einführ

Download link:


Links are Interchangeable - No Password - Single Extraction